Как Я Встретил Вашу Маму / How I Met Your Mother / Сезон: 2 / Серии: 1-22 (22) (Памела Фрайман) [2006-2007, США, комедия, мелодрама, HDTVRip 720p] MVO (MTV / студия "Кравец") + Original 

Цитировать
-Как я встретил вашу маму / How I Met Your MotherСезон 2, Серии 01-22-- Год выпуска: 2006-2007
Страна: США
Жанр: комедия
Продолжительность: ~ 00:20:00 x 22
Перевод: Профессиональный многоголосый закадровый [Студия "Кравец" по заказу МТВ]
Субтитры: отсутствуют-Режиссёр: Картер Бейс
В ролях: Джош Рэднор, Джейсон Сегел, Коби Смалдерс, Нил Патрик Хэррис, Эллисон Хэнниган и др.-Описание: How I met your mother - комедия про Теда (Джош Рэднор) и про то, как он влюбился. Все неприятности начинаются с того, что лучший друг Теда, Маршалл (Джейсон Сегел) вдруг неожиданно сообщил, что он хочет сделать предложение своей давней подруге, Лили (Эллисон Хэнниган), воспитательнице детского сада. К тому времени Тед понимает, что ему нужно прилагать больше усилий, если он действительно надеется найти свою настоящую любовь. Помогает ему в этих поисках его друг Барни (Нил Патрик Хэррис), убежденный холостяк, вечно со своим, иногда чересчур, мнением на все происходящее, со склонностью к костюмам и верным способом познакомиться с девушками. Когда Тед встречает Робин (Коби Смалдерс), он решает, что это любовь с первого взгляда, но у судьбы в запасе есть кое-что еще. Сериал представлен в форме повествования в будущем.-[ Все раздачи сериала ] | [ Сэмпл ]-Русская аудиодорожка для серий 01-08 взята отсюда-Качество: HDTVRip 720p
Формат: MKV
Видео кодек: H.264
Аудио кодек: AC3
Видео: H.264, 1280x720, 25 fps (original 23.976 fps), ~ 3 100 Kbps, 0.140 bit/pixel
Аудио 1: AC3, 48 kHz, 2 ch, 192 kbps [Русский, студия "Кравец"]
Аудио 2: AC3, 48 kHz, 6 ch, 384 kbps [Английский] / [4, 7 серии - AC3, 48 kHz, 2 ch, 192 kbps]
-

MI

General
Unique ID : 233574371942485866246461810890887332586 (0xAFB8C9A7CAAA2DF19D6AE553611702EA)
Complete name : K:\HIMYM\How.I.Met.Your.Mother.S02.720p.HDTV.Rus.Eng\How.I.Met.Your.Mother.S02E02.720p.HDTV.Rus.Eng.mkv
Format : Matroska
Format version : Version 2
File size : 577 MiB
Duration : 21mn 0s
Overall bit rate : 3 837 Kbps
Movie name : How I Met Your Mother - Season 02 Episode 02 - The Scorpion and the Toad / Скорпион и жаба [Rus MTV | Eng]
Encoded date : UTC 2012-05-07 10:16:13
Writing application : mkvmerge v5.2.1 ('A Far Off Place') built on Jan 2 2012 23:21:10
Writing library : libebml v1.2.3 + libmatroska v1.3.0
Video
ID : 1
Format : AVC
Format/Info : Advanced Video Codec
Format profile : Main@L5.1
Format settings, CABAC : Yes
Format settings, ReFrames : 8 frames
Codec ID : V_MPEG4/ISO/AVC
Duration : 21mn 0s
Bit rate : 3 125 Kbps
Width : 1 280 pixels
Height : 720 pixels
Display aspect ratio : 16:9
Frame rate : 25.000 fps
Original frame rate : 23.976 fps
Color space : YUV
Chroma subsampling : 4:2:0
Bit depth : 8 bits
Scan type : Progressive
Bits/(Pixel*Frame) : 0.136
Stream size : 479 MiB (83%)
Title : How I Met Your Mother S02E02 The Scorpion and the Toad
Writing library : x264 core 50 svn-565M
Encoding settings : cabac=1 / ref=5 / deblock=1:0:0 / analyse=0x1:0x131 / me=hex / subme=5 / brdo=0 / mixed_ref=1 / me_range=16 / chroma_me=1 / trellis=1 / 8x8dct=0 / cqm=0 / chroma_qp_offset=0 / slices=2 / nr=0 / decimate=1 / bframes=3 / b_pyramid=1 / b_adapt=1 / b_bias=25 / direct=3 / wpredb=1 / bime=1 / keyint=240 / keyint_min=24 / scenecut=40 / rc=2pass / bitrate=3125 / ratetol=1.0 / rceq='blurCplx^(1-qComp)' / qcomp=0.60 / qpmin=10 / qpmax=51 / qpstep=4 / cplxblur=20.0 / qblur=0.5 / ip_ratio=1.40 / pb_ratio=1.30
Language : English
Default : Yes
Forced : No
Audio #1
ID : 2
Format : AC-3
Format/Info : Audio Coding 3
Mode extension : CM (complete main)
Codec ID : A_AC3
Duration : 21mn 0s
Bit rate mode : Constant
Bit rate : 192 Kbps
Channel(s) : 2 channels
Channel positions : Front: L R
Sampling rate : 48.0 KHz
Bit depth : 16 bits
Compression mode : Lossy
Stream size : 28.9 MiB (5%)
Title : MVO MTV (студия "Кравец") @ AC3 2.0 192 kbps
Language : Russian
Default : Yes
Forced : No
Audio #2
ID : 3
Format : AC-3
Format/Info : Audio Coding 3
Mode extension : CM (complete main)
Codec ID : A_AC3
Duration : 21mn 0s
Bit rate mode : Constant
Bit rate : 384 Kbps
Channel(s) : 6 channels
Channel positions : Front: L C R, Side: L R, LFE
Sampling rate : 48.0 KHz
Bit depth : 16 bits
Compression mode : Lossy
Stream size : 57.7 MiB (10%)
Title : Original @ AC3 5.1 384 kbps
Language : English
Default : No
Forced : No
-
-

Внимание! Раздача ведётся путём добавления новых серий

Внимание! Раздача ведётся путём добавления новых серий; при каждом добавлении создётся новый торрент. Чтобы
начать докачку новой серии, пользователям необходимо сделать следующее:
  • Остановить скачивание.
  • Удалить старый торрент у себя из клиента (старые серии удалять не надо).
  • Скачать новый торрент и запустить его у себя в клиенте вместо старого, при этом указать клиенту путь в старую папку куда и
    должно происходить скачивание новых серий.
Ваш клиент при этом должен произвести хеширование (проверку) старой папки (если не производит сам - помогите ему сделать
это), и будет докачивать только те серии которых у вас ещё нет. Старые серии при этом не удаляются, а продолжают раздаваться!
Eсли вы уже удалили старые серии, то предотвратить повторную закачку старых серий можно, отжав галочку в соответсвующих местах при
запуске нового торрента. По возможности, желательно не удалять старые серии как можно дольше чтобы релизёр не столько продолжал
раздавать старые серии, а смог сконцентрироваться на новых.
-Торрент обновлен. Добавлена 22 серия-
Вы не можете начинать темы
Вы не можете отвечать на сообщения
Вы не можете редактировать свои сообщения
Вы не можете удалять свои сообщения
Вы не можете голосовать в опросах
Вы не можете прикреплять файлы к сообщениям
Вы можете скачивать файлы
!ВНИМАНИЕ!

Сайт не предоставляет электронные версии произведений, а занимается лишь коллекционированием и каталогизацией ссылок, присылаемых и публикуемых на форуме нашими читателями. Если вы являетесь правообладателем какого-либо представленного материала и не желаете, чтобы ссылка на него находилась в нашем каталоге, свяжитесь с нами, и мы незамедлительно удалим ее. Файлы для обмена на трекере предоставлены пользователями сайта, и администрация не несет ответственности за их содержание. Просьба не заливать файлы, защищенные авторскими правами, а также файлы нелегального содержания!

Искали программы, игры, дополнения, музыка mp3, аниме, аудио книги, журналы? Добро пожаловать на свободный торрент трекер Torrents, у нас можно скачать бесплатно, без смс и регистрации и прочих ограничений лучшие, отборные сборки программ, игр. Скачать торрентом не составит труда даже не опытному пользователю. Раздачи ежедневно обновляются, только лучшие и качественные раздачи, подробные описания и скриншоты. Огромная коллекция программ для работы со звуком, графикой, дизайном, а так же множество плагинов и инструментов к ним с подробной инструкцией и рекомендациями. Прошивки для навигаторов, карты. Разнообразные игры, для Windows, Linux. В коллекцие есть и старые игры любых жанров, Rpg, Action, Shooter, strategy Множество дополнений, модификаций, сценариев для популярных игр в жанре экш, рпг, гонки, стратегии, логические игры. Множество аддонов и сценариев для Microsoft Flight Simulator Большая коллекция книг, учебников. Если нет возможности купить печатное издание - смело скачивайте цифровую версию книги или, быть может, журнала. Не любите читать - можно загрузить бесплатно аудикнигу. Для веб дизайнеров и программистов так же найдется множество специализированного софта, таких как: редакторы с подсветкой, среды программирования, компоненты, системы управления базами данных, разнообразные скрипты и шаблоны. Не так давно у нас появился материал для автолюбителей и владельцев мото - оригинальные и неоригинальные каталоги запчастей, книги и журналы по ремонту и обслуживанию, видеоуроки, статьи по чип тюнингу, прошивкам. Процедура получения контента элементарная, достаточно просто скачать торрент файл и добавить его в загрузку в вашем торрент клиенте. Если у вас нет специального торрент клиента, вы можете его скачать у нас.