Теория Большого Взрыва / The Big Bang Theory / Сезон: 5 / Серии: 1-24 (24) (Марк Сендроуски) [2011-2012, США, Ситком, HDTVRip 1080p] VO (Кураж-Бамбей) 

Цитировать
Теория Большого взрыва / The Big Bang Theory / 5 Cезон / HDTVRip / 1080p
Год выпуска: 2011
Страна: США
Жанр: Ситком
Продолжительность: 00:22:00
Перевод: профессиональный одноголосый закадровый -
Русские субтитры: нет
Режиссёр: Чак Лорри
В ролях: Джонни Галаки, Джим Парсонс, Кейли Куоко, Саймон Хелберг, Кунал Найар, Сара Гилберт
Описание: Два блестящих физика, Леонард и Шелдон, «великие умы», которые понимают как «работает вселенная». Но их гениальность ничуть не помогает им общаться с людьми, особенно с женщинами. Всё начинает меняться, когда напротив них поселяется красавица Пенни. Когда Леонард и Шелдон встречают Пенни, Леонард сразу же начинает интересоваться ею. Он видит в общении с Пенни огромную перспективу… вплоть до любви, однако Шелдон понимает, что мечтам его друга не суждено сбыться. Стоит также отметить пару странных друзей этих физиков: Воловиц, который любит употреблять фразы на разных языках, включая русский, и Раджеш Кутраппали, теряющий дар речи при виде женщин.
Ссылка на предыдущие и альтернативные раздачи: http://rutracker.org/forum/tracker.php?f=507&nm=the Big Bang Theory
Сэмпл: http://d2t. СПАМ http://d2t. СПАМ
Качество: HDTVRip
Формат: MKV
Видео кодек: H.264
Аудио кодек: AC3
Видео: 1920 Х 1080 / ~8500 kbp/s / 23.976 fps / 0.18 bit/px
Аудио: 2.0 / 48 KHz / ~192 kbp/s - русская
Аудио 2: 5.1 / 48 KHz / ~384 kbp/s - английская

Внимательно

Это пережатие с MPEG2 1080i
Качество исходников весьма низкое.

Изменения

Серии

0501 - The Skank Reflex Analysis
0502 - The Infestation Hypothesis
0503 - The Pulled Groin Extrapolation
0504 - The Wiggly Finger Catalyst
0505 - The Russian Rocket Reaction
0506 - The Rhinitis Revelation
0507 - The Good Guy Fluctuation
0508 - The Isolation Permutation
0509 - The Ornithophobia Diffusion
0510 - The Flaming Spittoon Acquisition
0511 - The Speckerman Recurrence
0512 - The Shiny Trinket Maneuver
0513 - The Recombination Hypothesis
0514 - The Beta Test Initiation
0515 - The Friendship Contraction
0516 - The Vacation Solution
0517 - The Rothman Disintegration
0518 - The Werewolf Transformation
0519 - The Weekend Vortex
0520 - The Transporter Malfunction
0521 - The Hawking Excitation
0522 - The Stag Convergence
0523 - The Launch Acceleration
0524 - The Countdown Reflection

MI

General
Unique ID : 185632137745280751129069692346753038675 (0x8BA7730384855762AD5FCB94E48B3953)
Complete name : N:\Сериалы\Теория большого взрыва\The Big Bang Theory 5s HDTVRip 1080p\0501 - The Skank Reflex Analysis.mkv
Format : Matroska
File size : 1.41 GiB
Duration : 21mn 32s
Overall bit rate : 9 370 Kbps
Movie name : Релиз - D2T/"Криволапый ювелир"
Encoded date : UTC 2011-11-08 23:17:12
Writing application : mkvmerge v4.0.0 ('The Stars were mine') сборка от Jun 6 2010 16:18:42
Writing library : libebml v1.0.0 libmatroska v1.0.0
Video
ID : 1
Format : AVC
Format/Info : Advanced Video Codec
Format profile : High@L4.0
Format settings, CABAC : Yes
Format settings, ReFrames : 4 frames
Format settings, GOP : M=1, N=32
Codec ID : V_MPEG4/ISO/AVC
Duration : 21mn 32s
Bit rate : 8 607 Kbps
Width : 1 920 pixels
Height : 1 080 pixels
Display aspect ratio : 16:9
Frame rate : 23.976 fps
Color space : YUV
Chroma subsampling : 4:2:0
Bit depth : 8 bits
Scan type : Progressive
Bits/(Pixel*Frame) : 0.173
Stream size : 1.29 GiB (92%)
Writing library : x264 core 116 r2074 2641b9e
Encoding settings : cabac=1 / ref=4 / deblock=1:0:0 / analyse=0x3:0x112 / me=tesa / subme=9 / psy=1 / psy_rd=1.00:0.00 / mixed_ref=1 / me_range=16 / chroma_me=1 / trellis=2 / 8x8dct=1 / cqm=0 / deadzone=21,11 / fast_pskip=1 / chroma_qp_offset=-2 / threads=6 / sliced_threads=0 / nr=0 / decimate=1 / interlaced=0 / bluray_compat=0 / constrained_intra=0 / bframes=4 / b_pyramid=2 / b_adapt=2 / b_bias=0 / direct=3 / weightb=0 / open_gop=0 / weightp=2 / keyint=150 / keyint_min=1 / scenecut=33 / intra_refresh=0 / rc=cqp / mbtree=0 / qp=18 / ip_ratio=1.40 / pb_ratio=1.30 / aq=0
Language : English
Audio #1
ID : 2
Format : AC-3
Format/Info : Audio Coding 3
Format profile : Dolby Digital
Mode extension : CM (complete main)
Codec ID : A_AC3
Duration : 21mn 32s
Bit rate mode : Constant
Bit rate : 192 Kbps
Channel(s) : 2 channels
Channel positions : Front: L R
Sampling rate : 48.0 KHz
Bit depth : 16 bits
Compression mode : Lossy
Stream size : 29.6 MiB (2%)
Title : Кураж-Бамбей
Language : Russian
Audio #2
ID : 3
Format : AC-3
Format/Info : Audio Coding 3
Mode extension : CM (complete main)
Codec ID : A_AC3
Duration : 21mn 32s
Bit rate mode : Constant
Bit rate : 384 Kbps
Channel(s) : 6 channels
Channel positions : Front: L C R, Side: L R, LFE
Sampling rate : 48.0 KHz
Bit depth : 16 bits
Compression mode : Lossy
Stream size : 59.2 MiB (4%)
Language : English

Релиз

"Криволапый ювелир"

Внимание! Раздача ведётся путём добавления новых серий

Внимание! Раздача ведётся путём добавления новых серий; при каждом добавлении создётся новый торрент. Чтобы начать докачку новой серии, пользователям необходимо сделать следующее:
(1) остановить скачивание,
(2) удалить старый торрент у себя из клиента (старые серии удалять не надо),
(3) скачать новый торрент и запустить его у себя в клиенте вместо старого, при этом указать клиенту путь в старую папку куда и должно происходить скачивание новых серий.
Ваш клиент при этом должен произвести хеширование (проверку) старой папки (если не производит сам - помогите ему сделать это), и будет докачивать только те серии которых у вас ещё нет. Старые серии при этом не удаляются, а продолжают раздаваться!
Eсли вы уже удалили старые серии, то предотвратить повторную закачку старых серий можно, отжав галочку в соответсвующих местах при запуске нового торрента. По возможности, желательно не удалять старые серии как можно дольше чтобы релизёр не столько продолжал раздавать старые серии, а смог сконцентрироваться на новых.

Теория Большого взрыва / The Big Bang Theory

НоваМедиа / СТС

1 Сезон
WEB-DLRip-AVC - http://rutracker.org/forum/viewtopic.php?t=3891772
1,2 Сезоны
HDTVRip-AVC - http://rutracker.org/forum/viewtopic.php?t=3815647
3 Сезон
BDRip-AVC - http://rutracker.org/forum/viewtopic.php?t=3816864

НТВ / НТВ

1 Сезон
WEB-DLRip-AVC - http://rutracker.org/forum/viewtopic.php?t=3889033
Теория Большого Взрыва, дополнительные материалы - http://rutracker.org/forum/viewtopic.php?t=3405678
Вы не можете начинать темы
Вы не можете отвечать на сообщения
Вы не можете редактировать свои сообщения
Вы не можете удалять свои сообщения
Вы не можете голосовать в опросах
Вы не можете прикреплять файлы к сообщениям
Вы можете скачивать файлы
!ВНИМАНИЕ!

Сайт не предоставляет электронные версии произведений, а занимается лишь коллекционированием и каталогизацией ссылок, присылаемых и публикуемых на форуме нашими читателями. Если вы являетесь правообладателем какого-либо представленного материала и не желаете, чтобы ссылка на него находилась в нашем каталоге, свяжитесь с нами, и мы незамедлительно удалим ее. Файлы для обмена на трекере предоставлены пользователями сайта, и администрация не несет ответственности за их содержание. Просьба не заливать файлы, защищенные авторскими правами, а также файлы нелегального содержания!

Искали программы, игры, дополнения, музыка mp3, аниме, аудио книги, журналы? Добро пожаловать на свободный торрент трекер Torrents, у нас можно скачать бесплатно, без смс и регистрации и прочих ограничений лучшие, отборные сборки программ, игр. Скачать торрентом не составит труда даже не опытному пользователю. Раздачи ежедневно обновляются, только лучшие и качественные раздачи, подробные описания и скриншоты. Огромная коллекция программ для работы со звуком, графикой, дизайном, а так же множество плагинов и инструментов к ним с подробной инструкцией и рекомендациями. Прошивки для навигаторов, карты. Разнообразные игры, для Windows, Linux. В коллекцие есть и старые игры любых жанров, Rpg, Action, Shooter, strategy Множество дополнений, модификаций, сценариев для популярных игр в жанре экш, рпг, гонки, стратегии, логические игры. Множество аддонов и сценариев для Microsoft Flight Simulator Большая коллекция книг, учебников. Если нет возможности купить печатное издание - смело скачивайте цифровую версию книги или, быть может, журнала. Не любите читать - можно загрузить бесплатно аудикнигу. Для веб дизайнеров и программистов так же найдется множество специализированного софта, таких как: редакторы с подсветкой, среды программирования, компоненты, системы управления базами данных, разнообразные скрипты и шаблоны. Не так давно у нас появился материал для автолюбителей и владельцев мото - оригинальные и неоригинальные каталоги запчастей, книги и журналы по ремонту и обслуживанию, видеоуроки, статьи по чип тюнингу, прошивкам. Процедура получения контента элементарная, достаточно просто скачать торрент файл и добавить его в загрузку в вашем торрент клиенте. Если у вас нет специального торрент клиента, вы можете его скачать у нас.